Problem mit Abspielen von MP4 von NAS - USB ok

      Problem mit Abspielen von MP4 von NAS - USB ok

      Habe an meinen UFS 923 nun ein NAS angeschlossen. Wenn ich das MediaCenter aufrufe, werden mir dort alle MP4-Videos angezeigt (auch mit »Abspielsymbol« und Info »Video-Datei«). Abspielen funktioniert aber nur bei einigen.
      Dieselben Dateien lassen sich jedoch auf eine USB-Platte übertragen ohne Probleme abspielen.
      Abspielbare und nicht abspielbare liegen im selben Ordner.
      … Wie könnte ich alles von der NAS zum laufen bringen.

      ffmpeg sagt mir z.B. über eine auch von der NAS abspielbare Datei:
      OK.mp4
      major_brand : mp42
      minor_version : 1
      compatible_brands: mp42mp41
      Stream #0:0(eng): Video: h264 (Constrained Baseline) (avc1 / 0x31637661), yuv420p(tv, bt709), 1024x576, 3913 kb/s, 25 fps, 25 tbr, 25 tbn, 50 tbc (default)

      und eine z.B., die nicht funktioniert:
      nicht.mp4
      major_brand : mp42
      minor_version : 0
      compatible_brands: isommp42
      Stream #0:0(und): Video: h264 (High) (avc1 / 0x31637661), yuv420p, 1280x720 [SAR 1:1 DAR 16:9], 1816 kb/s, 29.97 fps, 29.97 tbr, 30k tbn, 59.94 tbc (default)