UFS-924 spielt keine MPEG-4 Videos ab

      UFS-924 spielt keine MPEG-4 Videos ab

      Hallo Kathrein,

      ich möchte mit dem Programm MAGIX Fotostory erstellte Diashows (MPEG-4, 1920x1080, 25 fps, durchschnittliche Bitrate 10..15 Mbit/s) am UFS-924 abspielen. Das ist leider nicht möglich, weder über Netzwerk, noch über USB, auch nicht direkt von der internen HDD. Im besten Fall läuft das Video wenige Sekunden, dann bleibt es stehen. Meist schon mit dem Anfangsbild, und ohne Audioausgabe.

      Bei der Wiedergabe über Netzwerk ist es bei manchen Videos möglich, per Pfeiltaste hineinzuspringen. Die Wiedergabe läuft dann für einige Sekunden, allerdings ohne Audio.

      Wo liegt das Problem?

      Bei Bedarf kann ich entsprechende Test-Clips bereitstellen.

      Vielen Dank für Eure Unterstützung!
      UFS-924 FW2.10, ACL 1.23 (S02), Unicam Atlantic 1.51 (HD02) | Panasonic TH42-PZ80EA (HDMI)
      UFS-922 (XCC45) FW2.10 | Samsung LE32C650 (FW3015)
      Hallo Capricorn,

      hierbei handelt es sich höchstwahrscheinlich um ein Kontainerformat, das vom Chip des Receivers nicht verarbeitet werden kann.

      Da am Chip selbst keine Änderungen vorgenommen werden können, ist keine Abhilfe möglich.

      Sie müssen die Diashow in einem anderen Format, bzw. Kontainerformat speichern.

      Viele Grüße,

      Kathrein
      Hallo Kathrein,

      danke für das rasche Feedback, aber ich kann die Information nicht so recht einordnen.

      Anbei eine mit dem Windows-Programm MediaInfo extrahierte Beschreibung einer MPEG-4 Diashow welche der UFS-924 nur bruchstückhaft abspielen kann.
      Läßt sich daraus erkennen, welches das problematische Containerformat ist, und was ich statt dessen verwenden sollte?

      Vielen Dank & Grüsse



      General
      Complete name : Diashow.mp4
      Format : MPEG-4
      Format profile : Base Media / Version 2
      Codec ID : mp42
      File size : 1.64 GiB
      Duration : 19mn 6s
      Overall bit rate mode : Variable
      Overall bit rate : 12.3 Mbps
      Encoded date : UTC 2015-04-11 11:27:06
      Tagged date : UTC 2015-04-11 11:27:06

      Video
      ID : 1
      Format : AVC
      Format/Info : Advanced Video Codec
      Format profile : High@L4
      Format settings, CABAC : Yes
      Format settings, ReFrames : 4 frames
      Format settings, GOP : M=3, N=30
      Codec ID : avc1
      Codec ID/Info : Advanced Video Coding
      Duration : 19mn 6s
      Bit rate : 12.1 Mbps
      Width : 1 920 pixels
      Height : 1 080 pixels
      Display aspect ratio : 16:9
      Frame rate mode : Constant
      Frame rate : 25.000 fps
      Standard : PAL
      Color space : YUV
      Chroma subsampling : 4:2:0
      Bit depth : 8 bits
      Scan type : Progressive
      Bits/(Pixel*Frame) : 0.233
      Stream size : 1.61 GiB (99%)
      Language : English
      Encoded date : UTC 2015-04-11 11:27:06
      Tagged date : UTC 2015-04-11 11:27:06
      Color range : Limited
      Color primaries : BT.709
      Transfer characteristics : BT.709
      Matrix coefficients : BT.709

      Audio
      ID : 2
      Format : AAC
      Format/Info : Advanced Audio Codec
      Format profile : LC
      Codec ID : 40
      Duration : 19mn 6s
      Bit rate mode : Variable
      Bit rate : 160 Kbps
      Maximum bit rate : 473 Kbps
      Channel(s) : 2 channels
      Channel positions : Front: L R
      Sampling rate : 48.0 KHz
      Compression mode : Lossy
      Stream size : 21.9 MiB (1%)
      Language : English
      Encoded date : UTC 2015-04-11 11:27:06
      Tagged date : UTC 2015-04-11 11:27:06
      UFS-924 FW2.10, ACL 1.23 (S02), Unicam Atlantic 1.51 (HD02) | Panasonic TH42-PZ80EA (HDMI)
      UFS-922 (XCC45) FW2.10 | Samsung LE32C650 (FW3015)
      Hallo capricorn,

      bei dem Video Format handelt es sich um das SVC Format.

      Dieses wird durch den Receiver nicht unterstützt.

      Daher kann dies nicht wiedergegeben werden.

      Viele Grüße,

      Kathrein
      Danke für die Antwort!

      Welche Detail-Formate werden denn vom Receiver unterstützt?
      Im Datenblatt steht nur pauschal "MPEG-4/H.264".

      Ich bräuchte diese Information um beim Hersteller des Diashow-Programms anzufragen, falls ich das nicht selbst rausbekommen sollte.

      Vielen Dank!
      UFS-924 FW2.10, ACL 1.23 (S02), Unicam Atlantic 1.51 (HD02) | Panasonic TH42-PZ80EA (HDMI)
      UFS-922 (XCC45) FW2.10 | Samsung LE32C650 (FW3015)
      Hallo Capricorn,

      vielen Dank für die zur Verfügung gestellte .mov Datei.
      Diese haben wir an unsere Entwickler weitergeleitet.
      Sobald wir ein Ergebnis haben, werden wir Ihnen dies mitteilen.

      Viele Grüße,
      Kathrein